Metal Deftones - Saturday Night Wrist (Clean Version) (2006) [FLAC]

RotzFLAC

Thread Starter
Upload Legende
Trusted Upper
Registriert
Beigetreten
13 Januar 2019
Beiträge
1.318
Reaktionspunktzahl
36
Punkte
310



Audio Bitrate: ~1000 kBit/s (44.1 kHz/16 Bit/s) | Audio Encoder: FLAC
Releaseyear: 2006 | Size: 346,12 MB | Notes:
Hier, Anmelden oder Registrieren um alle Foren Links und URL-Inhalte zu sehen!
| Add. Notes: Clean Version

Tracklist:
Code:
1 Hole In The Earth 4:09
2 Rapture 3:25
3 Beware 6:00
4 Cherry Waves 5:17
5 Mein 3:59
6 U,U,D,D,L,R,L,R,A,B,Select,Start 4:12
7 Xerces 3:42
8 Rats!Rats!Rats! 4:00
9 Pink Cellphone 3:54
10 Combat 4:46
11 Kimdracula 3:15
12 Rivière 3:45
Log / CUE / NFO:
Code:
Exact Audio Copy V1.0 beta 3 from 29. August 2011

Отчёт EAC об извлечении, выполненном 22. марта 2014, 3:41

Deftones / Saturday Night Wrist

Дисковод: Optiarc DVD RW AD-7203S   Adapter: 4  ID: 0

Режим чтения                 : Достоверность
Использование точного потока : Да
Отключение кэша аудио        : Да
Использование указателей C2  : Нет

Коррекция смещения при чтении                     : 48
Способность читать области Lead-in и Lead-out     : Нет
Заполнение пропущенных сэмплов тишиной            : Да
Удаление блоков с тишиной в начале и конце        : Нет
При вычислениях CRC использовались нулевые сэмплы : Да
Интерфейс                                         : Встроенный Win32-интерфейс для Win NT/2000

Выходной формат : Внутренние WAV-операции
Формат сэмплов  : 44.100 Гц; 16 бит; стерео


TOC извлечённого CD

     Трек |   Старт  | Длительность | Начальный сектор | Конечный сектор 
    ---------------------------------------------------------------------
       1  |  0:00.00 |    4:09.38   |           0      |      18712      
       2  |  4:09.38 |    3:25.25   |       18713      |      34112      
       3  |  7:34.63 |    6:00.50   |       34113      |      61162      
       4  | 13:35.38 |    5:17.53   |       61163      |      84990      
       5  | 18:53.16 |    3:59.09   |       84991      |     102924      
       6  | 22:52.25 |    4:12.39   |      102925      |     121863      
       7  | 27:04.64 |    3:42.61   |      121864      |     138574      
       8  | 30:47.50 |    4:00.63   |      138575      |     156637      
       9  | 34:48.38 |    3:54.34   |      156638      |     174221      
      10  | 38:42.72 |    4:46.19   |      174222      |     195690      
      11  | 43:29.16 |    3:15.60   |      195691      |     210375      
      12  | 46:45.01 |    3:45.18   |      210376      |     227268      


Характеристики диапазона извлечения и сообщения об ошибках

Выбранный диапазон

     Имя файла D:\Deftones - 2006 - Saturday Night Wrist (9362-49346-2)\Deftones - Saturday Night Wrist.wav

     Пиковый уровень 99.9 %
     Скорость извлечения 1.2 X
     Качество диапазона 99.9 %
     CRC теста 1B208C97
     CRC копии 1B208C97
     Копирование... OK

Ошибок не произошло

 
AccurateRip: сводка
 
Трек  1  : извлечено точно (доверие 32)  [21DC6AF1]  (AR v2)
Трек  2  : извлечено точно (доверие 33)  [BC40E631]  (AR v2)
Трек  3  : извлечено точно (доверие 33)  [60A3B35A]  (AR v2)
Трек  4  : извлечено точно (доверие 34)  [5DF45A92]  (AR v2)
Трек  5  : извлечено точно (доверие 34)  [EDD2B46D]  (AR v2)
Трек  6  : извлечено точно (доверие 33)  [50A30BDC]  (AR v2)
Трек  7  : извлечено точно (доверие 34)  [A2EABC1E]  (AR v2)
Трек  8  : извлечено точно (доверие 34)  [9E6103D7]  (AR v2)
Трек  9  : извлечено точно (доверие 34)  [5EF0CA4B]  (AR v2)
Трек 10  : извлечено точно (доверие 34)  [E7BCC595]  (AR v2)
Трек 11  : извлечено точно (доверие 34)  [1DAE10E0]  (AR v2)
Трек 12  : извлечено точно (доверие 34)  [BE0B1800]  (AR v2)
 
Все треки извлечены точно

Конец отчёта

==== Контрольная сумма отчёта D30F25887AED230F65FC2E2E698DD818EC787EF1CCE8EEF4284F65B28C29A363 ====

REM GENRE "Nu Metal"
REM DATE 2006
REM DISCID 980BD60C
REM COMMENT "ExactAudioCopy v1.0b3"
CATALOG 0093624934622
PERFORMER "Deftones"
TITLE "Saturday Night Wrist"
FILE "Deftones - Saturday Night Wrist.flac" WAVE
  TRACK 01 AUDIO
    TITLE "Hole In The Earth"
    PERFORMER "Deftones"
    ISRC USMV20600261
    INDEX 01 00:00:00
  TRACK 02 AUDIO
    TITLE "Rapture"
    PERFORMER "Deftones"
    ISRC USMV20600295
    INDEX 01 04:09:38
  TRACK 03 AUDIO
    TITLE "Beware"
    PERFORMER "Deftones"
    ISRC USMV20600283
    INDEX 01 07:34:63
  TRACK 04 AUDIO
    TITLE "Cherry Waves"
    PERFORMER "Deftones"
    ISRC USMV20600284
    INDEX 01 13:35:38
  TRACK 05 AUDIO
    TITLE "Mein"
    PERFORMER "Deftones"
    ISRC USMV20600285
    INDEX 01 18:53:16
  TRACK 06 AUDIO
    TITLE "U,U,D,D,L,R,L,R,A,B,Select,Start"
    PERFORMER "Deftones"
    ISRC USMV20600286
    INDEX 00 22:51:19
    INDEX 01 22:52:25
  TRACK 07 AUDIO
    TITLE "Xerces"
    PERFORMER "Deftones"
    ISRC USMV20600287
    INDEX 01 27:04:64
  TRACK 08 AUDIO
    TITLE "Rats!Rats!Rats!"
    PERFORMER "Deftones"
    ISRC USMV20600293
    INDEX 00 30:46:49
    INDEX 01 30:47:50
  TRACK 09 AUDIO
    TITLE "Pink Cellphone"
    PERFORMER "Deftones"
    ISRC USMV20600294
    INDEX 01 34:48:38
  TRACK 10 AUDIO
    TITLE "Combat"
    PERFORMER "Deftones"
    ISRC USMV20600290
    INDEX 01 38:42:72
  TRACK 11 AUDIO
    TITLE "Kimdracula"
    PERFORMER "Deftones"
    ISRC USMV20600291
    INDEX 01 43:29:16
  TRACK 12 AUDIO
    TITLE "Riviere"
    PERFORMER "Deftones"
    ISRC USMV20600292
    INDEX 00 46:43:39
    INDEX 01 46:45:01

DOWNLOAD:
all hosters/crypters are compatible
Crypted via FileCrypt:
Hier, Anmelden oder Registrieren um alle Foren Links und URL-Inhalte zu sehen!

Hier, Anmelden oder Registrieren um alle Foren Links und URL-Inhalte zu sehen!

Hier, Anmelden oder Registrieren um alle Foren Links und URL-Inhalte zu sehen!

Hier, Anmelden oder Registrieren um alle Foren Links und URL-Inhalte zu sehen!


Crypted via Tolink:
Hier, Anmelden oder Registrieren um alle Foren Links und URL-Inhalte zu sehen!

Hier, Anmelden oder Registrieren um alle Foren Links und URL-Inhalte zu sehen!

Hier, Anmelden oder Registrieren um alle Foren Links und URL-Inhalte zu sehen!

Hier, Anmelden oder Registrieren um alle Foren Links und URL-Inhalte zu sehen!


Passwort: "slam" (without " ")
 
"Sharehitz.net" Gefällt dir Dann unterstütze uns mit dem Kauf eines Premium Account bei Rapidgator.net

Top Unten