Rock The Rolling Stones - Between The Buttons (Remastered) (1969/1985) [FLAC]

RotzFLAC

Thread Starter
Upload Legende
Trusted Upper
Registriert
Beigetreten
13 Januar 2019
Beiträge
1.088
Reaktionspunktzahl
34
Punkte
310



Audio Bitrate: ~800 kBit/s (44.1 kHz/16 Bit/s) | Audio Encoder: FLAC
Releaseyear: 1969/1985 | Size: 223,7 MB | Notes:
Hier, Anmelden oder Registrieren um alle Foren Links und URL-Inhalte zu sehen!
| Add. Notes: Remastered

Tracklist:
Code:
1 - Let's Spend The Night Together - 3:39
2 - Yesterday's Papers - 2:07
3 - Ruby Tuesday - 3:18
4 - Connection - 2:09
5 - She Smiled Sweetly - 2:44
6 - Cool, Calm & Collected - 4:14
7 - All Sold Out - 2:17
8 - My Obsession - 3:18
9 - Who's Been Sleeping Here? - 3:50
10 - Complicated - 3:13
11 - Miss Amanda Jones - 2:44
12 - Something Happened To Me Yesterday - 4:54
Log / CUE / NFO:
Code:
Exact Audio Copy V1.0 beta 3 from 29. August 2011

EAC extraction logfile from 29. June 2013, 0:41

The Rolling Stones / Between The Buttons (2nd West German Pressing)

Used drive  : SONY    DVD+-RW DW-D56A   Adapter: 1  ID: 0

Read mode               : Secure
Utilize accurate stream : Yes
Defeat audio cache      : Yes
Make use of C2 pointers : No

Read offset correction                      : 12
Overread into Lead-In and Lead-Out          : No
Fill up missing offset samples with silence : Yes
Delete leading and trailing silent blocks   : No
Null samples used in CRC calculations       : Yes
Used interface                              : Native Win32 interface for Win NT & 2000

Used output format              : User Defined Encoder
Selected bitrate                : 768 kBit/s
Quality                         : High
Add ID3 tag                     : No
Command line compressor         : C:\Program Files\Exact Audio Copy\FLAC\FLAC.EXE
Additional command line options : -V -8 -T "Date=%year%" -T "Genre=%genre%" %source%


TOC of the extracted CD

     Track |   Start  |  Length  | Start sector | End sector 
    ---------------------------------------------------------
        1  |  0:00.33 |  3:39.00 |        33    |    16457   
        2  |  3:39.33 |  2:07.00 |     16458    |    25982   
        3  |  5:46.33 |  3:18.00 |     25983    |    40832   
        4  |  9:04.33 |  2:09.00 |     40833    |    50507   
        5  | 11:13.33 |  2:44.00 |     50508    |    62807   
        6  | 13:57.33 |  4:14.00 |     62808    |    81857   
        7  | 18:11.33 |  2:17.00 |     81858    |    92132   
        8  | 20:28.33 |  3:18.00 |     92133    |   106982   
        9  | 23:46.33 |  3:50.00 |    106983    |   124232   
       10  | 27:36.33 |  3:13.00 |    124233    |   138707   
       11  | 30:49.33 |  2:44.00 |    138708    |   151007   
       12  | 33:33.33 |  4:54.00 |    151008    |   173057   


Range status and errors

Selected range

     Filename E:\RUTRA\1967 - Between The Buttons\The Rolling Stones - Between The Buttons (2nd West German Pressing).wav

     Peak level 84.5 %
     Extraction speed 3.9 X
     Range quality 100.0 %
     Test CRC 2873565B
     Copy CRC 2873565B
     Copy OK

No errors occurred

 
AccurateRip summary
 
Track  1  accurately ripped (confidence 2)  [C426F26F]  (AR v2)
Track  2  accurately ripped (confidence 2)  [1A8E7C60]  (AR v2)
Track  3  accurately ripped (confidence 2)  [710BCF5B]  (AR v2)
Track  4  accurately ripped (confidence 2)  [A1BF788D]  (AR v2)
Track  5  accurately ripped (confidence 2)  [ED4269B9]  (AR v2)
Track  6  accurately ripped (confidence 2)  [664EE084]  (AR v2)
Track  7  accurately ripped (confidence 2)  [2939E33F]  (AR v2)
Track  8  accurately ripped (confidence 2)  [1E24BAEA]  (AR v2)
Track  9  accurately ripped (confidence 2)  [81ADB247]  (AR v2)
Track 10  accurately ripped (confidence 2)  [F722C1C8]  (AR v2)
Track 11  accurately ripped (confidence 2)  [51331576]  (AR v2)
Track 12  accurately ripped (confidence 2)  [92EFDF68]  (AR v2)
 
All tracks accurately ripped

End of status report

==== Log checksum 86BEB5F8C0C3BB5CEF0E56BD387A6363CCC392404174ADA64CAD9DC2AED69A94 ====

REM GENRE Pop/Rock*
REM DATE 1967
REM DISCID 9809030C
REM COMMENT "ExactAudioCopy v1.0b3"
PERFORMER "The Rolling Stones"
TITLE "Between The Buttons (2nd West German Pressing)"
FILE "The Rolling Stones - Between The Buttons (2nd West German Pressing).flac" WAVE
  TRACK 01 AUDIO
    TITLE "Let's Spend The Night Together"
    PERFORMER "The Rolling Stones"
    INDEX 00 00:00:00
    INDEX 01 00:00:33
  TRACK 02 AUDIO
    TITLE "Yesterday's Papers"
    PERFORMER "The Rolling Stones"
    INDEX 00 03:38:70
    INDEX 01 03:39:33
  TRACK 03 AUDIO
    TITLE "Ruby Tuesday"
    PERFORMER "The Rolling Stones"
    INDEX 00 05:45:33
    INDEX 01 05:46:33
  TRACK 04 AUDIO
    TITLE "Connection"
    PERFORMER "The Rolling Stones"
    INDEX 00 09:03:33
    INDEX 01 09:04:33
  TRACK 05 AUDIO
    TITLE "She Smiled Sweetly"
    PERFORMER "The Rolling Stones"
    INDEX 00 11:12:33
    INDEX 01 11:13:33
  TRACK 06 AUDIO
    TITLE "Cool, Calm And Collected"
    PERFORMER "The Rolling Stones"
    INDEX 00 13:56:33
    INDEX 01 13:57:33
  TRACK 07 AUDIO
    TITLE "All Sold Out"
    PERFORMER "The Rolling Stones"
    INDEX 00 18:10:33
    INDEX 01 18:11:33
  TRACK 08 AUDIO
    TITLE "My Obsession"
    PERFORMER "The Rolling Stones"
    INDEX 00 20:27:33
    INDEX 01 20:28:33
  TRACK 09 AUDIO
    TITLE "Who's Been Sleeping Here?"
    PERFORMER "The Rolling Stones"
    INDEX 00 23:45:33
    INDEX 01 23:46:33
  TRACK 10 AUDIO
    TITLE "Complicated"
    PERFORMER "The Rolling Stones"
    INDEX 00 27:35:58
    INDEX 01 27:36:33
  TRACK 11 AUDIO
    TITLE "Miss Amanda Jones"
    PERFORMER "The Rolling Stones"
    INDEX 00 30:48:33
    INDEX 01 30:49:33
  TRACK 12 AUDIO
    TITLE "Something Happened To Me Yesterday"
    PERFORMER "The Rolling Stones"
    INDEX 00 33:32:33
    INDEX 01 33:33:33

DOWNLOAD:
all hosters/crypters are compatible
Crypted via FileCrypt:
Hier, Anmelden oder Registrieren um alle Foren Links und URL-Inhalte zu sehen!

Hier, Anmelden oder Registrieren um alle Foren Links und URL-Inhalte zu sehen!

Hier, Anmelden oder Registrieren um alle Foren Links und URL-Inhalte zu sehen!

Hier, Anmelden oder Registrieren um alle Foren Links und URL-Inhalte zu sehen!


Crypted via Tolink:
Hier, Anmelden oder Registrieren um alle Foren Links und URL-Inhalte zu sehen!

Hier, Anmelden oder Registrieren um alle Foren Links und URL-Inhalte zu sehen!

Hier, Anmelden oder Registrieren um alle Foren Links und URL-Inhalte zu sehen!

Hier, Anmelden oder Registrieren um alle Foren Links und URL-Inhalte zu sehen!


Passwort: "slam" (without " ")
 
Top Unten